Mark Morton Anesthetic Download Free

Mark Morton Anesthetic Download Free 4,5/5 6528 votes
  1. Mark Morton Anesthetic Release Date

Lamb Of God guitarist Mark Morton's solo project.Tracklist:01 Cross Off Feat. Chester Bennington02 Sworn Apart Feat.

MortonDownload

Jacoby Shaddix03 Axis Feat. Mark Lanegan04 The Never Feat. Chuck Billy, Jake Oni05 Save Defiance Feat. Myles Kennedy06 Blur Feat. Mark Morales07 Back From The Dead Feat. Josh Todd08 Reveal Feat.

Maddox09 Imaginary Days10 The Truth Is Dead Feat. Randy Blythe, Alissa White-GluzComplete name: Mark Morton - Anesthetic/01 Mark Morton - Cross Off ft. Chester Bennington.mp3Format: MPEG AudioFile size: 4.85 MiBDuration: 4 min 14 sOverall bit rate mode: ConstantOverall bit rate: 160 kb/sWriting library: LAME3.100AudioFormat: MPEG AudioFormat version: Version 1Format profile: Layer 3Format settings: Joint stereo / MS StereoDuration: 4 min 14 sBit rate mode: ConstantBit rate: 160 kb/sChannel(s): 2 channelsSampling rate: 48.0 kHzFrame rate: 41.667 FPS (1152 SPF)Compression mode: LossyStream size: 4.85 MiB (100%)Writing library: LAME3.100GeneralComplete name: Mark Morton - Anesthetic/02 Mark Morton - Sworn Apart ft. Jacoby Shaddix.mp3Format: MPEG AudioFile size: 4.56 MiBDuration: 3 min 58 sOverall bit rate mode: ConstantOverall bit rate: 160 kb/sWriting library: LAME3.100AudioFormat: MPEG AudioFormat version: Version 1Format profile: Layer 3Format settings: Joint stereo / MS StereoDuration: 3 min 58 sBit rate mode: ConstantBit rate: 160 kb/sChannel(s): 2 channelsSampling rate: 48.0 kHzFrame rate: 41.667 FPS (1152 SPF)Compression mode: LossyStream size: 4.56 MiB (100%)Writing library: LAME3.100GeneralComplete name: Mark Morton - Anesthetic/03 Mark Morton - Axis (feat. Mark Lanegan).mp3Format: MPEG AudioFile size: 4.83 MiBDuration: 4 min 13 sOverall bit rate mode: ConstantOverall bit rate: 160 kb/sWriting library: Lavf58.20.100AudioFormat: MPEG AudioFormat version: Version 1Format profile: Layer 3Format settings: Joint stereoDuration: 4 min 13 sBit rate mode: ConstantBit rate: 160 kb/sChannel(s): 2 channelsSampling rate: 48.0 kHzFrame rate: 41.667 FPS (1152 SPF)Compression mode: LossyStream size: 4.83 MiB (100%)GeneralComplete name: Mark Morton - Anesthetic/04 Mark Morton - The Never ft.

Mark Morton Anesthetic Release Date

Chuck Billy, Jake Oni.mp3Format: MPEG AudioFile size: 4.71 MiBDuration: 4 min 7 sOverall bit rate mode: ConstantOverall bit rate: 160 kb/sWriting library: LAME3.100AudioFormat: MPEG AudioFormat version: Version 1Format profile: Layer 3Format settings: Joint stereo / MS StereoDuration: 4 min 7 sBit rate mode: ConstantBit rate: 160 kb/sChannel(s): 2 channelsSampling rate: 48.0 kHzFrame rate: 41.667 FPS (1152 SPF)Compression mode: LossyStream size: 4.71 MiB (100%)Writing library: LAME3.100GeneralComplete name: Mark Morton - Anesthetic/05 Mark Morton - Save Defiance ft. Myles Kennedy.mp3Format: MPEG AudioFile size: 5.30 MiBDuration: 4 min 38 sOverall bit rate mode: ConstantOverall bit rate: 160 kb/sWriting library: LAME3.100AudioFormat: MPEG AudioFormat version: Version 1Format profile: Layer 3Format settings: Joint stereo / MS StereoDuration: 4 min 38 sBit rate mode: ConstantBit rate: 160 kb/sChannel(s): 2 channelsSampling rate: 48.0 kHzFrame rate: 41.667 FPS (1152 SPF)Compression mode: LossyStream size: 5.30 MiB (100%)Writing library: LAME3.100GeneralComplete name: Mark Morton - Anesthetic/06 Mark Morton - Blur ft. Mark Morales.mp3Format: MPEG AudioFile size: 6.15 MiBDuration: 5 min 22 sOverall bit rate mode: ConstantOverall bit rate: 160 kb/sWriting library: LAME3.100AudioFormat: MPEG AudioFormat version: Version 1Format profile: Layer 3Format settings: Joint stereo / MS StereoDuration: 5 min 22 sBit rate mode: ConstantBit rate: 160 kb/sChannel(s): 2 channelsSampling rate: 48.0 kHzFrame rate: 41.667 FPS (1152 SPF)Compression mode: LossyStream size: 6.15 MiB (100%)Writing library: LAME3.100GeneralComplete name: Mark Morton - Anesthetic/07 Mark Morton - Back From The Dead ft. Josh Todd.mp3Format: MPEG AudioFile size: 4.67 MiBDuration: 4 min 4 sOverall bit rate mode: ConstantOverall bit rate: 160 kb/sWriting library: LAME3.100AudioFormat: MPEG AudioFormat version: Version 1Format profile: Layer 3Format settings: Joint stereo / MS StereoDuration: 4 min 4 sBit rate mode: ConstantBit rate: 160 kb/sChannel(s): 2 channelsSampling rate: 48.0 kHzFrame rate: 41.667 FPS (1152 SPF)Compression mode: LossyStream size: 4.67 MiB (100%)Writing library: LAME3.100GeneralComplete name: Mark Morton - Anesthetic/08 Mark Morton - Reveal ft.

Morton

Files: Mark Morton - Anesthetic. 01 Mark Morton - Cross Off ft. Chester Bennington.mp3 (4.9 MB). 02 Mark Morton - Sworn Apart ft. Jacoby Shaddix.mp3 (4.6 MB). 03 Mark Morton - Axis (feat.

Mark Lanegan).mp3 (4.8 MB). 04 Mark Morton - The Never ft. Chuck Billy, Jake Oni.mp3 (4.7 MB).

05 Mark Morton - Save Defiance ft. Myles Kennedy.mp3 (5.3 MB). 06 Mark Morton - Blur ft. Mark Morales.mp3 (6.1 MB). 07 Mark Morton - Back From The Dead ft. Josh Todd.mp3 (4.7 MB).

08 Mark Morton - Reveal ft. Maddox.mp3 (4.8 MB). 09 Mark Morton - Imaginary Days.mp3 (4.3 MB).

Free mp3 320kbps download. 10 Mark Morton - The Truth Is Dead ft. Randy Blythe, Alissa White-Gluz.mp3 (4.8 MB).